#TITLE:Reality;
#SUBTITLE:;
#ARTIST:The Berzerker;
#TITLETRANSLIT:;
#SUBTITLETRANSLIT:;
#ARTISTTRANSLIT:;
#CREDIT:;
#BANNER:BerzerkerL.gif;
#BACKGROUND:TheBerzerker19.jpg;
#LYRICSPATH:;
#CDTITLE:AngelofDeath.png;
#MUSIC:Berzerker -  Reality.mp3;
#OFFSET:0.040;
#SAMPLESTART:30.100;
#SAMPLELENGTH:12.500;
#SELECTABLE:YES;
#BPMS:0.000=259.000;
#STOPS:;
#BGCHANGES:;
// cache tags:
#FIRSTBEAT:50.000;
#LASTBEAT:337.500;
#SONGFILENAME:Songs/Music V.I.P ^_^/Reality/Reality.sm;
#HASMUSIC:1;
#HASBANNER:1;
#MUSICLENGTH:80.694;
// end cache tags

//---------------dance-single - In the death----------------
#NOTES:
     dance-single:
     In the death:
     Edit:
     17:
     1.000,1.000,1.000,0.000,1.000,930.000,133.000,0.000,0.000,0.000:
0000
0000
0000
0000
,
0000
0000
0000
0000
,
0000
0000
0000
0000
,
0000
0000
0000
0000
,
0000
0000
0000
0000
,
0000
0000
0000
0000
,
0000
0000
0000
0000
,
0000
0000
0000
0000
,
0000
0000
0000
0000
,
0000
0000
0000
0000
,
0000
0000
0000
0000
,
0000
0000
0000
0000
,
0000
0000
1100
0000
,
0000
0000
0000
0000
,
0000
0000
0000
0000
0010
0010
0010
0010
0010
0000
0000
0000
0000
0000
0000
0000
,
0000
0000
0000
0000
1000
1000
1000
1000
,
0001
0001
0001
0001
0001
0000
0000
0000
0011
0011
1000
0000
0110
0000
1001
0000
,
0110
1001
1100
0101
0110
1100
0101
1010
,
0101
0000
1100
0000
0001
0001
0001
0001
0001
0000
0101
0000
1010
0000
0101
0000
,
1010
0110
0101
1010
0101
1010
0110
0101
,
0110
0000
0110
0000
0110
0110
0110
0000
1001
0000
1001
0000
1001
0000
1001
0000
,
0101
0101
0101
0101
1001
1001
1001
1001
,
1100
0000
1100
0000
1100
0000
1100
0010
0001
1000
0100
0010
0001
0100
0010
1000
,
0100
0010
0001
0100
0010
0100
0001
1000
0100
0010
0001
0100
0010
0100
0001
1000
,
0100
0010
0001
0100
0010
0100
0001
0000
1001
0000
1001
0000
1001
0000
1001
0000
,
1100
1100
1100
1100
1001
1001
1001
1001
,
0101
0101
0101
0101
1001
1001
1100
1100
,
1001
1001
0011
0011
1001
1001
1001
1001
,
1100
0000
1100
0000
1100
0000
1100
0010
0001
1000
0100
0010
0001
0100
0010
0100
,
0001
1000
0100
0010
0100
0001
0010
0001
1000
0100
0010
0001
0100
0010
0100
0001
,
1000
0100
0010
0001
0100
0010
1000
0100
0010
0001
0100
0010
0001
0100
0010
0100
,
0001
0000
1000
0000
0100
0000
0010
0000
0001
0000
0100
0000
0010
0000
0100
0000
1000
0100
0010
0001
0100
0010
0001
0100
0010
1000
0100
0010
0001
0100
0010
0001
,
1000
0100
0010
0001
0100
0010
0001
0100
0010
0001
1000
0100
0010
0001
0100
0010
0001
0000
0000
0000
0000
0000
0000
0000
1000
0000
0000
0000
0000
0000
0000
0000
,
0010
0100
0001
1000
,
0010
0000
0000
0000
0001
0001
0001
0001
0001
0000
0000
0000
1000
0000
0000
0000
,
0100
0000
0010
0000
0001
0001
0001
0001
,
0001
0000
0001
0000
1001
0001
0001
0001
0001
0000
1000
1000
0001
0001
0100
0100
,
0010
0010
0100
0100
0001
0001
0010
0010
0100
0100
0010
0010
1000
1000
0100
0100
,
0010
0010
0100
0100
0001
0001
0100
0100
0010
0010
1000
1000
0001
0001
0100
0100
,
0010
0010
1000
1000
0001
0001
1000
1000
0001
0001
0100
0100
0010
0010
0001
0001
,
1000
1000
0010
0010
0100
0100
0001
0001
0010
0010
0000
0000
1001
0000
0000
0000
,
1001
1001
1001
1100
,
1001
1001
0101
1001
,
1001
1001
1001
1100
,
1001
0000
0000
0000
0000
0000
0000
0000
0001
0010
0001
0010
1000
0001
1000
0001
,
0100
0010
0100
0010
1000
0001
1000
0001
0100
0010
0100
0010
1000
0001
1000
0001
,
0100
0010
0100
0010
0001
1000
0001
1000
0010
0100
0010
0100
0010
0010
0010
0010
,
0001
0001
0001
0001
0010
0010
0010
0010
0001
0001
0001
0001
0100
0100
0100
0100
,
0001
0000
0000
0000
0000
0000
0000
0000
0001
0001
0010
0010
0100
0100
0001
0001
,
0100
0100
0010
0010
0100
0100
1000
1000
0001
0001
0100
0100
0010
0010
0100
0100
,
0001
0001
0010
0010
0100
0100
0001
0001
1000
1000
0100
0100
0010
0010
1000
1000
,
0010
0010
0100
0100
0010
0010
1000
1000
0001
0001
1000
1000
0010
0010
0100
0100
,
0010
0010
1000
1000
0010
0010
0001
0001
0100
0100
0010
0010
1000
1000
0010
0010
,
0100
0100
0010
0010
0001
0001
0010
0010
1000
1000
0010
0010
0001
0001
0001
0010
,
0010
0100
0100
0100
1000
1000
0010
0010
0100
0100
0001
0001
0010
0010
0100
0100
,
1000
1000
0010
0010
0010
0100
0100
0100
0001
0001
0001
1000
1000
1000
0010
0010
,
0100
0100
0001
0001
0010
0010
0100
0100
1000
1000
0001
0001
1100
0000
1100
0000
,
1100
1100
1100
1100
1001
1001
1001
1001
,
1001
1001
1001
1001
0101
0101
0101
0101
,
0101
0101
0101
0101
1001
1001
1001
1001
,
1001
0000
1001
0000
1001
0000
1001
0000
1001
0100
0010
0001
0100
0010
1000
0100
,
0010
0001
0100
0010
0100
0001
1000
0100
0010
0001
0100
0010
0100
0001
1000
0100
,
0010
0001
0100
0010
0001
1000
0100
0010
0001
0100
0010
1000
0100
0010
0001
0100
,
0010
0100
0001
1000
0100
0010
0001
0100
0010
0100
1000
0100
0010
0001
0100
0010
,
0100
0001
1000
0100
0010
0001
1000
0100
0010
0000
0000
0000
0110
0000
0000
0000
,
0110
0000
0000
0000
0001
0010
0001
0010
0001
0000
0000
0000
0110
0000
0000
0000
,
0110
0000
0000
0000
1000
0100
1000
0100
1000
0000
0000
0000
0110
0000
0000
0000
,
0110
0000
0000
0000
0010
0100
0010
0100
0010
0000
0000
1000
0001
1000
0001
1000
,
0000
0000
0000
0000
0001
0000
0000
0000
0010
0000
0001
0000
0010
0000
0001
0000
0010
0000
0100
0000
1000
0000
0100
1000
0100
1000
0100
0000
1000
0100
0010
0000
0001
0000
0000
0000
0000
0000
0000
0000
0000
0000
0000
0000
0000
0000
0000
0000
0001
0000
0000
0000
0001
0000
0000
0000
0010
0000
0000
0000
0010
0000
0000
0000
,
0001
0001
0010
0010
0100
0100
0010
0010
1000
1000
0001
0001
0100
0100
0010
0010
,
0100
0100
0001
0001
1000
1000
0010
0010
0100
0100
0001
0001
1000
1000
0010
0010
,
0100
0000
0000
0100
0000
0000
0001
0000
0000
0001
0000
0000
1000
0000
0000
1000
0000
0000
0010
0000
0000
0010
0000
0000
0100
0000
0000
0100
0000
0000
0001
0000
0001
0000
1000
0000
1000
0000
0010
0000
0010
0000
0001
0000
0001
0000
1000
0000
,
1000
0000
0001
0000
0001
0000
1000
0000
1000
0000
0001
0000
0001
0000
1000
0000
1000
0000
0010
0000
0010
0000
0100
0000
0100
0000
0001
0000
0001
0000
0000
0000
1000
0000
1000
0000
0001
0000
0000
0001
0000
0000
0100
0000
0000
0100
0000
0000
,
0010
0010
1000
1000
0001
0001
0010
0010
0100
0100
1000
1000
0001
0001
0100
0100
,
0010
0000
0000
0010
0000
0000
1000
0000
0000
1000
0000
0000
0001
0000
0001
0000
0010
0000
0010
0000
0100
0000
0100
0000
1000
0000
1000
0000
0001
0000
0001
0000
0100
0000
0100
0000
0010
0000
0010
0000
1000
0000
1000
0000
0001
0000
0001
0000
,
0010
0000
0010
0000
0100
0000
0100
0000
1000
0000
1000
0000
0001
0000
0000
0001
0000
0000
0010
0000
0000
0010
0000
0000
0100
0000
0000
0100
0000
0000
0001
0000
0000
0001
0000
0000
1000
0000
0000
1000
0000
0000
0010
0000
0000
0010
0000
0000
,
0100
0100
0001
0001
0100
0100
0010
0010
1000
1000
0001
0001
0100
0100
0010
0010
,
1000
1000
0001
0001
0100
0100
0010
0010
1000
1000
0100
0100
0010
0010
0001
0001
1000
1000
0100
0100
1000
1000
0001
0001
,
0010
0000
0010
0000
0001
0000
0001
0000
0100
0000
0100
0000
0010
0000
0010
0000
0000
0000
1000
0000
0000
1000
0000
0000
0001
0000
0000
0001
0000
0000
0100
0000
0000
0100
0000
0000
0010
0000
0000
0010
0000
0000
0001
0000
0000
0001
0000
0000
,
1000
0000
0000
1000
0000
0000
0001
0000
0000
0001
0000
0000
0100
0000
0100
0000
0010
0000
0010
0000
1000
0000
1000
0000
0001
0000
0001
0000
0100
0000
0100
0000
0010
0000
0010
0000
1000
0000
1000
0000
0001
0000
0001
0000
0010
0000
0010
0000
,
0100
0000
0100
0000
1000
0000
1000
0000
0010
0000
0010
0000
0100
0000
0100
0000
0001
0000
0001
0000
1000
0000
1000
0000
0001
0000
0000
0001
0000
0000
0100
0000
0000
0100
0000
0000
0010
0000
0000
0010
0000
0000
1000
0000
0000
1000
0000
0000
,
1000
0001
0001
0100
0100
0100
0010
0010
0001
0001
1000
1000
0010
0010
0100
0100
,
0001
0001
1000
1000
0010
0010
0100
0100
1001
0100
0010
0001
0100
0010
0100
1000
,
0001
1000
0100
0010
0001
0100
0010
0100
1001
0010
0001
0100
0010
0100
1000
0100
,
1000
0100
0010
0100
0010
1000
0001
0000
0000
0000
0000
0000
0000
0000
0000
0000
;
